标题: [欧美] [BD]泰勒·斯威夫特2014iHeartRadio音乐节[TS/1.14G]
  本主题被作者加入到个人文集中  
‘尛傑’ (肥旺…)
音乐掌门人
Rank: 14Rank: 14Rank: 14Rank: 14
独家资源


至爱音乐荣誉勋章   至爱音乐版主  
UID 59570
精华 11
积分 2391671992
帖子 2077
音乐魅力 244186257 点
现金 2147483647 音乐币
阅读权限 180
注册 2006-8-28
状态 在线
发表于 2014-11-28 23:38  资料  个人空间  短消息  加为好友  QQ
[BD]泰勒·斯威夫特2014iHeartRadio音乐节[TS/1.14G]



QUOTE:
简介:
     当地时间9月19日,2014 iHeartRadio音乐节在拉斯维加斯的米高梅大酒店拉开序幕。美国乡村音乐小天后泰勒·斯威夫特(Taylor Swift)作为音乐节开场嘉宾,身穿Jessica Jones粉色镶钻露脐套裙亮相,甜美而不失性感!
     当晚,泰勒演唱了《We Are Never Ever Getting Back Together》、《I  Knew You Were Trouble》、《Love Story》以及她的全新单曲《Shake It Off》等多首歌曲,总时长达25分钟之久,另在场观众一饱耳福。

曲目:
01. We Are Never Ever Getting Back Together
02. 22
03. I Knew You Were Trouble
04. Love Story
05. Shake It Off



QUOTE:
下载地址:

http://pan.baidu.com/s/1qW0oiYg
提取码:
**** 本内容跟帖回复才可浏览 *****



QUOTE:
General
ID                             : 1 (0x1)
Complete name                  : Taylor Swift - iHeartRadio Music Festival.ts
Format                         : MPEG-TS
File size                      : 1.14 GiB
Duration                       : 25mn 33s
Overall bit rate mode          : Variable
Overall bit rate               : 6 384 Kbps

Video
ID                             : 256 (0x100)
Menu ID                        : 1 (0x1)
Format                         : AVC
Format/Info                    : Advanced Video Codec
Format profile                 : Main@L3.2
Format settings, CABAC         : Yes
Format settings, ReFrames      : 2 frames
Codec ID                       : 27
Duration                       : 25mn 33s
Bit rate mode                  : Variable
Bit rate                       : 5 939 Kbps
Maximum bit rate               : 6 000 Kbps
Width                          : 1 280 pixels
Height                         : 720 pixels
Display aspect ratio           : 16:9
Frame rate                     : 30.000 fps
Color space                    : YUV
Chroma subsampling             : 4:2:0
Bit depth                      : 8 bits
Scan type                      : Progressive
Bits/(Pixel*Frame)             : 0.215
Stream size                    : 1.06 GiB (93%)

Audio
ID                             : 257 (0x101)
Menu ID                        : 1 (0x1)
Format                         : AAC
Format/Info                    : Advanced Audio Codec
Format version                 : Version 4
Format profile                 : LC
Muxing mode                    : ADTS
Codec ID                       : 15
Duration                       : 25mn 33s
Bit rate mode                  : Variable
Bit rate                       : 128 Kbps
Channel(s)                     : 2 channels
Channel positions              : Front: L R
Sampling rate                  : 44.1 KHz
Compression mode               : Lossy
Stream size                    : 23.4 MiB (2%)

[ 本帖最后由 ‘尛傑’ 于 2014-11-28 23:46 编辑 ]

分享到:     分享到新浪微博 新浪微博    分享到QQ空间QQ空间    分享到腾讯微博腾讯微博



至爱音乐论坛声明:
◎本站音乐仅供试听,请下载后在24小时内删除,请支持你喜欢的歌手,购买正版CD。
◎本站音乐皆从网上搜集转载,版权归唱片公司和歌手所有,如侵犯您的权益,请通知我们,我们将及时删除。





顶部
nanronan98
音乐狂热份子
Rank: 4



UID 135576
精华 0
积分 2949
帖子 1193
音乐魅力 1608 点
现金 148 音乐币
阅读权限 50
注册 2009-12-1
状态 离线
发表于 2014-11-30 10:28  资料  个人空间  短消息  加为好友 
太好了哈哈

顶部
bluelarry
音乐狂热份子
Rank: 4



UID 45410
精华 0
积分 3435
帖子 206
音乐魅力 2513 点
现金 716 音乐币
阅读权限 50
注册 2006-7-13
状态 离线
发表于 2014-11-30 17:40  资料  个人空间  短消息  加为好友 
连续两枚强力贴!!!!

顶部
MICHAEL
音乐狂热份子
Rank: 4



UID 142500
精华 0
积分 2018
帖子 935
音乐魅力 1063 点
现金 20 音乐币
阅读权限 50
注册 2011-4-1
状态 离线
发表于 2014-12-1 20:16  资料  个人空间  短消息  加为好友 
回复 #1 ‘尛傑’ 的帖子

多謝分享,好東西,收下。

顶部
ericlams
音乐热爱份子
Rank: 3Rank: 3



UID 28650
精华 0
积分 987
帖子 119
音乐魅力 892 点
现金 -24 音乐币
阅读权限 30
注册 2006-5-24
来自 china
状态 离线
发表于 2014-12-7 19:13  资料  个人空间  短消息  加为好友 
Thanks!!!

顶部
ljyzorro
音乐热爱份子
Rank: 3Rank: 3



UID 137862
精华 0
积分 1412
帖子 491
音乐魅力 811 点
现金 110 音乐币
阅读权限 30
注册 2010-6-1
状态 离线
发表于 2014-12-10 13:00  资料  个人空间  短消息  加为好友 
thanks for sharing

顶部
frank_ljy
音乐新人
Rank: 1



UID 148017
精华 0
积分 142
帖子 2
音乐魅力 130 点
现金 10 音乐币
阅读权限 10
注册 2013-7-1
状态 离线
发表于 2015-2-5 21:44  资料  个人空间  短消息  加为好友 
支持楼主,谢谢分享

顶部
Meow_steve
音乐新人
Rank: 1



UID 148805
精华 0
积分 245
帖子 55
音乐魅力 177 点
现金 13 音乐币
阅读权限 10
注册 2015-2-1
状态 离线
发表于 2015-2-15 12:02  资料  个人空间  短消息  加为好友 
永远支持我的霉霉

顶部
xoxiaoyuer (AKA BigRoy)
音乐制作人
Rank: 6Rank: 6
雪雪的胖胖


UID 144276
精华 0
积分 5821
帖子 319
音乐魅力 5479 点
现金 23 音乐币
阅读权限 70
注册 2011-10-3
来自 青州
状态 离线
发表于 2015-3-30 23:01  资料  个人空间  短消息  加为好友  QQ
收霉霉的 大爱

顶部
lj19831024
音乐狂热份子
Rank: 4



UID 12795
精华 0
积分 2546
帖子 122
音乐魅力 1900 点
现金 524 音乐币
阅读权限 50
注册 2006-3-15
状态 在线
发表于 2015-5-19 00:05  资料  个人空间  短消息  加为好友 
thank you very much!

顶部
hazelay
音乐狂热份子
Rank: 4



UID 57488
精华 0
积分 3039
帖子 7
音乐魅力 2316 点
现金 716 音乐币
阅读权限 50
注册 2006-8-21
状态 离线
发表于 2016-4-9 01:40  资料  个人空间  短消息  加为好友 
这个mv很少见 我看只能在至爱音乐中找到

顶部
skyboyslove
音乐热爱份子
Rank: 3Rank: 3


UID 129807
精华 0
积分 1379
帖子 79
音乐魅力 993 点
现金 307 音乐币
阅读权限 30
注册 2008-12-15
状态 离线
发表于 2018-6-13 15:57  资料  个人空间  短消息  加为好友  添加 skyboyslove 为MSN好友 通过MSN和 skyboyslove 交谈
多謝分享,好東西,收下。

顶部
 



当前时区 GMT+8, 现在时间是 2018-10-17 19:55
本论坛支付平台由支付宝提供
携手打造安全诚信的交易社区
Processed in 0.022702 second(s), 8 queries , Gzip enabled

清除 Cookies - 联系我们 - 至爱音乐论坛 - Archiver - WAP