标题: [华语] [BD]Eric周興哲 - 以後別做朋友[MP4/38M]
  本主题被作者加入到个人文集中  
‘尛傑’ (肥旺…)
音乐掌门人
Rank: 14Rank: 14Rank: 14Rank: 14
独家资源


至爱音乐荣誉勋章   至爱音乐版主  
UID 59570
精华 11
积分 2391671992
帖子 2077
音乐魅力 244186257 点
现金 2147483647 音乐币
阅读权限 180
注册 2006-8-28
状态 离线
发表于 2017-6-21 13:53  资料  个人空间  短消息  加为好友  QQ
[BD]Eric周興哲 - 以後別做朋友[MP4/38M]



QUOTE:
下载地址:
http://pan.baidu.com/s/1miicljq

提取码:
**** 本内容跟帖回复才可浏览 *****



QUOTE:
General
Format                         : MPEG-4
Format profile                 : Base Media / Version 2
Codec ID                       : mp42 (isom/mp42)
File size                      : 38.3 MiB
Duration                       : 4 min 24 s
Overall bit rate mode          : Variable
Overall bit rate               : 1 215 kb/s
Encoded date                   : UTC 2016-08-20 19:33:08
Tagged date                    : UTC 2016-08-20 19:33:08
gsst                           : 0
gstd                           : 264452

Video
ID                             : 1
Format                         : AVC
Format/Info                    : Advanced Video Codec
Format profile                 : Main@L3.1
Format settings, CABAC         : Yes
Format settings, ReFrames      : 3 frames
Codec ID                       : avc1
Codec ID/Info                  : Advanced Video Coding
Duration                       : 4 min 24 s
Bit rate                       : 1 085 kb/s
Width                          : 1 280 pixels
Height                         : 720 pixels
Display aspect ratio           : 16:9
Frame rate mode                : Constant
Frame rate                     : 29.970 (30000/1001) FPS
Color space                    : YUV
Chroma subsampling             : 4:2:0
Bit depth                      : 8 bits
Scan type                      : Progressive
Bits/(Pixel*Frame)             : 0.039
Stream size                    : 34.2 MiB (89%)
Title                          : ISO Media file produced by Google Inc.
Encoded date                   : UTC 2016-08-20 19:33:08
Tagged date                    : UTC 2016-08-20 19:33:08

Audio
ID                             : 2
Format                         : AAC
Format/Info                    : Advanced Audio Codec
Format profile                 : LC
Codec ID                       : 40
Duration                       : 4 min 24 s
Bit rate mode                  : Variable
Bit rate                       : 126 kb/s
Channel(s)                     : 2 channels
Channel positions              : Front: L R
Sampling rate                  : 44.1 kHz
Frame rate                     : 43.066 FPS (1024 spf)
Compression mode               : Lossy
Stream size                    : 3.96 MiB (10%)
Title                          : ISO Media file produced by Google Inc.
Encoded date                   : UTC 2016-08-20 19:33:08
Tagged date                    : UTC 2016-08-20 19:33:08


分享到:     分享到新浪微博 新浪微博    分享到QQ空间QQ空间    分享到腾讯微博腾讯微博



至爱音乐论坛声明:
◎本站音乐仅供试听,请下载后在24小时内删除,请支持你喜欢的歌手,购买正版CD。
◎本站音乐皆从网上搜集转载,版权归唱片公司和歌手所有,如侵犯您的权益,请通知我们,我们将及时删除。





顶部
温柔雪人
音乐爱好者
Rank: 2



UID 140846
精华 0
积分 762
帖子 25
音乐魅力 439 点
现金 298 音乐币
阅读权限 30
注册 2011-1-1
状态 离线
发表于 2017-6-27 15:49  资料  个人空间  短消息  加为好友 
感谢分享

顶部
khiemera
音乐狂热份子
Rank: 4



UID 25298
精华 0
积分 3095
帖子 34
音乐魅力 2345 点
现金 716 音乐币
阅读权限 50
注册 2006-5-12
状态 离线
发表于 2018-7-8 16:06  资料  个人空间  短消息  加为好友 
thanks for sharing!

顶部
 



当前时区 GMT+8, 现在时间是 2018-12-12 06:30
本论坛支付平台由支付宝提供
携手打造安全诚信的交易社区
Processed in 0.025906 second(s), 9 queries , Gzip enabled

清除 Cookies - 联系我们 - 至爱音乐论坛 - Archiver - WAP