‘尛傑’ (强势回归...)
音乐掌门人
Rank: 14Rank: 14Rank: 14Rank: 14
独家资源


至爱音乐荣誉勋章   至爱音乐版主  
UID 59570
精华 11
积分 148879103
帖子 2064
音乐魅力 49729 点
现金 148827299 音乐币
阅读权限 180
注册 2006-8-28
状态 在线
发表于 2017-2-8 22:38  资料  个人空间  短消息  加为好友  QQ
[BD]BIGBANG - FXXK IT(官方中字)[MP4/124M]



QUOTE:
下载地址:
http://pan.baidu.com/s/1c2qsRvi


提取码:


**** 本内容跟帖回复才可浏览 *****



QUOTE:
General
Format                         : MPEG-4
Format profile                 : Base Media
Codec ID                       : isom (isom/iso2/avc1/mp41)
File size                      : 125 MiB
Duration                       : 4 min 4 s
Overall bit rate               : 4 293 kb/s
Writing application            : Lavf56.40.101

Video
ID                             : 1
Format                         : AVC
Format/Info                    : Advanced Video Codec
Format profile                 : High@L4
Format settings, CABAC         : Yes
Format settings, ReFrames      : 3 frames
Codec ID                       : avc1
Codec ID/Info                  : Advanced Video Coding
Duration                       : 4 min 3 s
Duration_FirstFrame            : -33 ms
Bit rate                       : 4 160 kb/s
Width                          : 1 920 pixels
Height                         : 1 080 pixels
Display aspect ratio           : 16:9
Frame rate mode                : Variable
Frame rate                     : 29.970 (29970/1000) FPS
Minimum frame rate             : 29.970 FPS
Maximum frame rate             : 29.990 FPS
Color space                    : YUV
Chroma subsampling             : 4:2:0
Bit depth                      : 8 bits
Scan type                      : Progressive
Bits/(Pixel*Frame)             : 0.067
Stream size                    : 121 MiB (97%)
Color range                    : Limited
Color primaries                : BT.709
Transfer characteristics       : BT.709
Matrix coefficients            : BT.709

Audio
ID                             : 2
Format                         : AAC
Format/Info                    : Advanced Audio Codec
Format profile                 : LC
Codec ID                       : 40
Duration                       : 4 min 4 s
Bit rate mode                  : Constant
Bit rate                       : 126 kb/s
Channel(s)                     : 2 channels
Channel positions              : Front: L R
Sampling rate                  : 44.1 kHz
Frame rate                     : 43.066 FPS (1024 spf)
Compression mode               : Lossy
Stream size                    : 3.65 MiB (3%)
Default                        : Yes
Alternate group                : 1


分享到:     分享到新浪微博 新浪微博    分享到QQ空间QQ空间    分享到腾讯微博腾讯微博



至爱音乐论坛声明:
◎本站音乐仅供试听,请下载后在24小时内删除,请支持你喜欢的歌手,购买正版CD。
◎本站音乐皆从网上搜集转载,版权归唱片公司和歌手所有,如侵犯您的权益,请通知我们,我们将及时删除。





顶部
xoxiaoyuer (AKA BigRoy)
音乐制作人
Rank: 6Rank: 6
雪雪的胖胖


UID 144276
精华 0
积分 5815
帖子 316
音乐魅力 5476 点
现金 23 音乐币
阅读权限 70
注册 2011-10-3
来自 青州
状态 离线
发表于 2017-2-12 19:21  资料  个人空间  短消息  加为好友  QQ
收下这个中文版 谢谢分享~~

顶部
clxc (Melon_s)
音乐热爱份子
Rank: 3Rank: 3



UID 134858
精华 0
积分 835
帖子 117
音乐魅力 620 点
现金 98 音乐币
阅读权限 30
注册 2009-10-1
状态 离线
发表于 2017-6-9 14:50  资料  个人空间  短消息  加为好友 
xiexie分享

顶部
温柔雪人
音乐爱好者
Rank: 2



UID 140846
精华 0
积分 762
帖子 25
音乐魅力 439 点
现金 298 音乐币
阅读权限 30
注册 2011-1-1
状态 离线
发表于 2017-6-28 15:37  资料  个人空间  短消息  加为好友 
感谢楼主分享

顶部
bahadur
音乐热爱份子
Rank: 3Rank: 3



UID 129295
精华 0
积分 1223
帖子 10
音乐魅力 915 点
现金 298 音乐币
阅读权限 30
注册 2008-12-1
状态 离线
发表于 2017-11-13 19:19  资料  个人空间  短消息  加为好友 
感谢楼主分享

顶部
 



当前时区 GMT+8, 现在时间是 2017-11-18 16:33
本论坛支付平台由支付宝提供
携手打造安全诚信的交易社区
Processed in 0.035370 second(s), 9 queries , Gzip enabled

清除 Cookies - 联系我们 - 至爱音乐论坛 - Archiver - WAP